Details for this torrent 

47.Ronin.2013.WEBRip.XviD-TODE
Type:
Video > Movies
Files:
2
Size:
1.37 GiB (1472923670 Bytes)

Info:
IMDB
Spoken language(s):
English
Tag(s):
Ronin 2013 Action Adventure Fantasy

Uploaded:
2014-03-18 20:29:54 GMT
By:
xxxlavalxxx VIP

Seeders:
0
Leechers:
1
Comments
2  

Info Hash:
 
2914E3AA9F1F167CBB4DCA3D454CC82BE08AE752
 




(Problems with magnets links are fixed by upgrading your torrent client!)
 http://www.imdb.com/title/tt1335975/


A band of samurai set out to avenge the death and dishonor of their master at the hands of a ruthless shogun.

Director: Carl Rinsch
Writers: Chris Morgan (screenplay), Hossein Amini (screenplay)
Stars: Keanu Reeves, Hiroyuki Sanada, Ko Shibasaki
Genres: Action | Adventure | Fantasy
Country: USA
Language: English | Japanese


Thanks: PHD



screens
 
http://i.imgur.com/fkqPP4n.jpg 
http://i.imgur.com/cxNxSub.jpg 
http://i.imgur.com/nxKr8F3.jpg 
http://i.imgur.com/0yRRcxR.jpg 
http://i.imgur.com/hJTgS2F.jpg 
http://i.imgur.com/NTnCMv0.jpg 
http://i.imgur.com/3B7RTpK.jpg

Comments

Format : AVI
Format/Info : Audio Video Interleave
File size : 1.37 GiB
Duration : 1h 58mn
Overall bit rate : 1 656 Kbps
Writing library : VirtualDub build 32842/release

Video
ID : 0
Format : MPEG-4 Visual
Format profile : Advanced Simple@L5
Format settings, BVOP : 2
Format settings, QPel : No
Format settings, GMC : No warppoints
Format settings, Matrix : Default (H.263)
Muxing mode : Packed bitstream
Codec ID : XVID
Codec ID/Hint : XviD
Duration : 1h 58mn
Bit rate : 1 519 Kbps
Width : 720 pixels
Height : 304 pixels
Display aspect ratio : 2.35:1
Frame rate : 23.976 fps
Color space : YUV
Chroma subsampling : 4:2:0
Bit depth : 8 bits
Scan type : Progressive
Compression mode : Lossy
Bits/(Pixel*Frame) : 0.289
Stream size : 1.26 GiB (92%)
Writing library : XviD 64

Audio
ID : 1
Format : MPEG Audio
Format version : Version 1
Format profile : Layer 3
Mode : Joint stereo
Codec ID : 55
Codec ID/Hint : MP3
Duration : 1h 58mn
Bit rate mode : Constant
Bit rate : 128 Kbps
Channel(s) : 2 channels
Sampling rate : 48.0 KHz
Compression mode : Lossy
Stream size : 109 MiB (8%)
Alignment : Split accross interleaves
Interleave, duration : 42 ms (1.00 video frame)
Interleave, preload duration : 500 ms
Paranormal Activity: The Marked Ones : Anytime Soon Thanks For The Upload
SitemapGDFR Going Down For Real (Rarestyle).mp3 | Helios 58 mm f2 44-M-4 Lens | Kampf der Menschenaffen