Details for this torrent 

B.o.B. ft Rivers Cuomo - Magic [KingPinVideos]
Type:
Video > Music videos
Files:
5
Size:
69.59 MiB (72965923 Bytes)
Tag(s):
BOB B.O.B Rivers Cuomo Magic Adventures of B.o.B. KingPinVideos Rap Music Videos
Uploaded:
2010-09-06 04:28:38 GMT
By:
KingPinMan
Seeders:
1
Leechers:
0
Comments
0  

Info Hash:
F04039B51837C3C403D67B9B9C90C7BF25DFAECF




(Problems with magnets links are fixed by upgrading your torrent client!)
[img]http://a.imageshack.us/img155/2817/bobmagic.png[/img]

[img]http://a.imageshack.us/img534/4079/bobmagic2.png[/img]

[code]General
Complete name                    : B.o.B. ft Rivers Cuomo - Magic [KingPinVideos].mpg
Format                           : MPEG-PS
File size                        : 69.6 MiB
Duration                         : 3mn 24s
Overall bit rate                 : 2 857 Kbps
Writing library                  : encoded by TMPGEnc 4.0 XPress Version. 4.7.4.299

Video
ID                               : 224 (0xE0)
Format                           : MPEG Video
Format version                   : Version 1
Format settings, BVOP            : Yes
Format settings, Matrix          : Default
Duration                         : 3mn 24s
Bit rate mode                    : Constant
Bit rate                         : 2 615 Kbps
Nominal bit rate                 : 2 700 Kbps
Width                            : 384 pixels
Height                           : 208 pixels
Display aspect ratio             : 16:9
Frame rate                       : 29.970 fps
Resolution                       : 8 bits
Scan type                        : Progressive
Bits/(Pixel*Frame)               : 1.092
Stream size                      : 63.7 MiB (92%)
Writing library                  : TMPGEnc XPress 4.7.4.299

Audio
ID                               : 192 (0xC0)
Format                           : MPEG Audio
Format version                   : Version 1
Format profile                   : Layer 2
Duration                         : 3mn 24s
Bit rate mode                    : Constant
Bit rate                         : 128 Kbps
Channel(s)                       : 2 channels
Sampling rate                    : 48.0 KHz
Stream size                      : 3.12 MiB (4%)[/code]

SitemapWatch Movie | Active Raid - Kidou Kyoushuushitsu Dai-Hakkei | Ash vs Evil Dead