Details for this torrent 

PEDRO 2008 NTSC DVD9 FULL
Type:
Video > Movies DVDR
Files:
35
Size:
6.64 GiB (7126968367 Bytes)

Info:
IMDB
Tag(s):
Documentary Drama Gay Aids

Uploaded:
2009-07-06 04:02:11 GMT
By:
joeyjammer69

Seeders:
0
Leechers:
5
Comments
1  

Info Hash:
 
5704730984712479BE02E292FD77EB0257B2F43D
 




(Problems with magnets links are fixed by upgrading your torrent client!)
UPDATE Nov 20 2010  Add these tracker urls if you are having problems especially if you are not using DHT (the stats here are not good usually there are more seeders & peers than shown.

->http://tracker.publicbt.com/announce
->udp://tracker.publicbt.com:80/announce

thepiratebay trackers no longer works, the http-openbitorrent doesn't work and the udp-openbitorrent is flaky 

PEDRO 2008 English, Spanish scene(forced English subs), selectable Closed Caption English, Spanish Subtitles FULL DVD9 - Nothing removed or shrunk
 
http://www.imdb.com/title/tt1281383/

PEDRO is a celebration and dramatized chronicle of the life of Pedro Zamora, the gay, HIV-positive Cuban-American whose role as a third-season cast member of MTV's THE REAL WORLD was a social and pop-cultural watershed. ... Full DescriptionZamora’s tragic death in 1994 at the age of 22 touched the hearts of millions of fans. Included along with the feature are three episodes of THE REAL WORLD: SAN FRANCISCO.

The made-for-TV Pedro makes its way to DVD this week, boasting a script by Milk Oscar-winner Dustin Lance Black. It could be argued that both films slightly suffer from the impossibility of finding an actor to be as charismatic as the real-life person depicted—especially when that person has been extensively captured on film in real life—but Alex Loynaz takes a valiant stab at portraying Pedro Zamora, the AIDS activist whose stint on MTV's The Real World made him one of pop culture's most visible gay men. The film definitely benefits from producers Richard Glatzer and Wash Westmoreland (Quinceañera) and their knowledge of the inner workings of reality TV.

Starring Teresa Hernandez, Matt Barr, Justina Machado, Hale Appleman, Dajuan Johnson, Jenn Liu, Anibal O. Lleras, Alex Loynaz, Karolin Luna, Rafael Moldino, Richard Glatzer, Alexis Castillo, Jorge Blanco Cruz, Alexis Garcia, Amy Lewis, Brady Smith
Director Nick Oceano
Screenplay Dustin Lance Black

Other features:
Color; interactive menus; scene access; bonus episode of "The Real World: San Francisco.", deleteed scenes, commentary, Pedro Zamora audition, Trailer

Screen Formats:Widescreen 1.85:1
Closed Captioned Closed Captioned
Language and Sound: English: Dolby Digital 2.0 Stereo
Length: 93 minutes

Specs from 1st VOB main movie
Format : MPEG-PS
File size : 1 024 MiB
Duration : 24mn 53s
Overall bit rate : 5 752 Kbps

Video
ID : 224 (0xE0)
Format : MPEG Video
Format version : Version 2
Format profile : Main@Main
Format settings, Matrix : Default
Bit rate mode : Variable
Bit rate : 5 137 Kbps
Nominal bit rate : 9 800 Kbps
Width : 720 pixels
Height : 480 pixels
Display aspect ratio : 2.35
Frame rate : 29.970 fps
Standard : NTSC
Colorimetry : 4:2:0
Scan type : Interlaced
Scan order : Top Field First
Bits/(Pixel*Frame) : 0.496
Stream size : 915 MiB (89%)

Audio #1 English some Spanish
ID : 128 (0x80)
Format : AC-3
Bit rate mode : Constant
Bit rate : 192 Kbps
Channel(s) : 2 channels
Sampling rate : 48.0 KHz
Stream size : 34.2 MiB (3%)

Audio #2 English commentary
Same encoding as Audioi 1

Text #1 English
ID : 32 (0x20)
Format : RLE
Format/Info : Run-length encoding
Video delay : 24mn 52s

Text #2 Spanish


The upload speed when seeding starts will start at a moderate speed then within a short time become real fast for those who have great download speed.

Comments

UPDATE Nov 20 2010 Add these tracker urls if you are having problems especially if you are not using DHT (the stats here are not good usually there are more seeders & peers than shown.
http://tracker.publicbt.com/announce
udp://tracker.publicbt.com:80/announce

thepiratebay trackers no longer works, the http-openbitorrent doesn't work and the udp-openbitorrent is flaky

Sitemapなかったことにしてはいけない | Watch movie | 海岛大亨6