Details for this torrent 

Du levande / You, the Living (2007) BDrip swe ukr eng
Type:
Video > Movies
Files:
1
Size:
1.45 GiB (1559652406 Bytes)
Info:
IMDB
Spoken language(s):
Swedish
Texted language(s):
English
Tag(s):
swe ukr ukrainian Roy Andersson
Uploaded:
2016-01-14 15:20:31 GMT
By:
Sjanyk
Seeders:
1
Leechers:
0
Comments
0  

Info Hash:
320BC2DFDAFE8B1A700AC167B6F244370702841F




(Problems with magnets links are fixed by upgrading your torrent client!)
Трилогія Тома Андерсона: фільм другий

Тобі, людино / Du levande / You, the Living (2007)

Director, Writer: Roy Andersson
Country: Sweden | Germany | France | Denmark | Norway | Japan 
Language: Swedish 

You, the Living is a film about humankind, its greatness and its baseness, joy and sorrow, its self-confidence and anxiety, its desire to love and be loved.

mediaindo
File size                                : 1.45 GiB
Duration                                 : 1h 33mn
Video Format                             : AVC
Audio Format/Info                        : Advanced Audio Codec
Language                                 : Swedish
Subtittles: Ukrainian; English

preview http://postimg.org/image/vs6dhzpy7/


Video
ID                                       : 1
Format                                   : AVC
Format/Info                              : Advanced Video Codec
Format settings, CABAC                   : Yes
Format settings, ReFrames                : 8 frames
Duration                                 : 1h 33mn
Bit rate                                 : 2 083 Kbps
Maximum bit rate                         : 7 403 Kbps
Width                                    : 910 pixels
Height                                   : 540 pixels
Display aspect ratio                     : 5:3
Frame rate                               : 24.000 fps
Color space                              : YUV
Bit depth                                : 8 bits
Scan type                                : Progressive
Bits/(Pixel*Frame)                       : 0.177
Stream size                              : 1.35 GiB (93%)
Writing library                          : x264 core 148 r2638 7599210
Encoding settings                        : cabac=1 / ref=8 / deblock=1:-1:-1 / analyse=0x1:0x131 / me=umh / subme=10 / psy=1 / psy_rd=1.00:0.00 / mixed_ref=1 / me_range=20 / chroma_me=1 / trellis=2 / 8x8dct=0 / cqm=0 / deadzone=21,11 / fast_pskip=1 / chroma_qp_offset=-2 / threads=3 / lookahead_threads=1 / sliced_threads=0 / nr=0 / decimate=1 / interlaced=0 / bluray_compat=0 / constrained_intra=0 / bframes=3 / b_pyramid=2 / b_adapt=2 / b_bias=0 / direct=3 / weightb=1 / open_gop=0 / weightp=2 / keyint=240 / keyint_min=24 / scenecut=40 / intra_refresh=0 / rc_lookahead=60 / rc=2pass / mbtree=1 / bitrate=2083 / ratetol=1.0 / qcomp=0.60 / qpmin=0 / qpmax=69 / qpstep=4 / cplxblur=20.0 / qblur=0.5 / vbv_maxrate=20000 / vbv_bufsize=20000 / nal_hrd=none / filler=0 / ip_ratio=1.40 / aq=1:1.00
Encoded date                             : UTC 2015-12-15 16:43:10
Tagged date                              : UTC 2015-12-15 16:44:37

Audio
ID                                       : 2
Format                                   : AAC
Format/Info                              : Advanced Audio Codec
Format profile                           : LC
Bit rate mode                            : Variable
Bit rate                                 : 149 Kbps
Maximum bit rate                         : 199 Kbps
Channel(s)                               : 2 channels
Channel positions                        : Front: L R
Sampling rate                            : 48.0 KHz
Stream size                              : 98.9 MiB (7%)
Language                                 : Swedish

Text #1
ID                                       : 3
Format                                   : Timed Text
Codec ID                                 : tx3g
Stream size                              : 29.9 KiB (0%)
Language                                 : Ukrainian
Forced                                   : No

Text #2
ID                                       : 4
Format                                   : Timed Text
Codec ID                                 : tx3g
Stream size                              : 21.0 KiB (0%)
Language                                 : English


Encoder: Sjanyk


source Du.levande.2007.1080p.BDRemux

SitemapIMDb: 6 HD Christmas in Evergreen: Letters to Santa | Read Essay | Best Match