Details for this torrent 

Filth.2013.1080p.BluRay.H264.AAC.MP4.Raven
Type:
Video > HD - Movies
Files:
12
Size:
1.4 GiB (1499037305 Bytes)

Info:
IMDB
Spoken language(s):
English
Texted language(s):
English, Swedish, Danish, Spanish, Italian, Dutch
Tag(s):
Raven 1080p AAC H264 AAC Swe Eng Esp Dutch Danish Dutch - Subs

Uploaded:
2014-09-28 14:57:32 GMT
By:
Raven1969

Seeders:
0
Leechers:
0
Comments
0  

Info Hash:
 
8F4491276CB8F0AE8FC20202237375AD74854A93
 




(Problems with magnets links are fixed by upgrading your torrent client!)
Filth.2013.1080p.BluRay.H264.AAC.MP4.Raven.




English, Spanish, Swedish, Danish, Italian and Dutch subs included.




Screen images:


 
http://i.imgur.com/IEJWo2w.png


 
http://i.imgur.com/l9hqkd6.png


 
http://i.imgur.com/spYoPMp.png


 
http://i.imgur.com/BNgbId1.png







IMDB:



 
http://www.imdb.com/title/tt1450321




IMDB Rating:  7.1




Storyline:

A corrupt cop manipulates and hallucinates his way through a bid to secure a promotion and win back his wife and daughter.

Scheming Bruce Robertson (James McAvoy), a bigoted and corrupt policeman, is in line for a promotion and will stop at nothing to get what he wants. Enlisted to solve a brutal murder and threatened by the aspirations of his colleagues, including Ray Lennox (Jamie Bell), Bruce sets about ensuring their ruin, right under the nose of unwitting Chief Inspector Toal. As he turns his colleagues against one another by stealing their wives and exposing their secrets, Bruce starts to lose himself in a web of deceit that he can no longer control. His past is slowly catching up with him, and a missing wife, a crippling drug habit and suspicious colleagues start to take their toll on his sanity. The question is: can he keep his grip on reality long enough to disentangle himself from the filth?



General
Format                                   : MPEG-4
Format profile                           : Base Media
Codec ID                                 : isom
File size                                : 1.39 GiB
Duration                                 : 1h 37mn
Overall bit rate mode                    : Variable
Overall bit rate                         : 2 047 Kbps
Encoded date                             : UTC 2014-09-28 09:37:00
Tagged date                              : UTC 2014-09-28 09:37:00
Writing application                      : My MP4Box GUI 0.6.0.6 <http://my-mp4box-gui.zymichost.com>

Video
ID                                       : 1
Format                                   : AVC
Format/Info                              : Advanced Video Codec
Format profile                           : High@L4.0
Format settings, CABAC                   : Yes
Format settings, ReFrames                : 6 frames
Codec ID                                 : avc1
Codec ID/Info                            : Advanced Video Coding
Duration                                 : 1h 37mn
Bit rate                                 : 2 000 Kbps
Maximum bit rate                         : 21.8 Mbps
Width                                    : 1 920 pixels
Height                                   : 816 pixels
Display aspect ratio                     : 2.35:1
Frame rate mode                          : Constant
Frame rate                               : 24.000 fps
Color space                              : YUV
Chroma subsampling                       : 4:2:0
Bit depth                                : 8 bits
Scan type                                : Progressive
Bits/(Pixel*Frame)                       : 0.053
Stream size                              : 1.33 GiB (95%)
Writing library                          : x264 core 128
Language                                 : English
Encoded date                             : UTC 2014-09-28 09:02:41
Tagged date                              : UTC 2014-09-28 09:37:17

Audio
ID                                       : 2
Format                                   : AAC
Format/Info                              : Advanced Audio Codec
Format profile                           : LC
Codec ID                                 : 40
Duration                                 : 1h 37mn
Bit rate mode                            : Variable
Bit rate                                 : 93.4 Kbps
Maximum bit rate                         : 99.8 Kbps
Channel(s)                               : 2 channels
Channel positions                        : Front: L R
Sampling rate                            : 48.0 KHz
Compression mode                         : Lossy
Stream size                              : 65.0 MiB (5%)
Title                                    : Audio AAC LC 96kb.aac
Encoded date                             : UTC 2014-09-28 09:37:12
Tagged date                              : UTC 2014-09-28 09:37:17



PLEASE  SEED FOR AS LONG AS POSSIBLE TO KEEP THE TORRENT ALIVE :-)





SitemapAkte.X.S11E04.Der.Mandela-Effekt.German.DD51.Dubbed.DL.720p.AmazonHD.x264-TVS | Impact of Computer on Record Keeping | settlefish