Details for this torrent 

Moonrunners - RARE (1975)
Type:
Video > Movies
Files:
1
Size:
1.18 GiB (1268954762 Bytes)

Info:
IMDB
Spoken language(s):
English
Tag(s):
moonrunners 1975 dukes hazzard luke rosco hogg general lee james mitchum grade bobby lee uncle jesse waldron kiel martin enos cooter waylon jannings

Uploaded:
2014-06-10 15:33:38 GMT
By:
cowabungaFC

Seeders:
4
Leechers:
0
Comments
3  

Info Hash:
 
C76386285B046A58F54D52E4B315C307D4147F68
 




(Problems with magnets links are fixed by upgrading your torrent client!)
The movie that inspired the TV show 'The Dukes of Hazzard'.


-----------------------------------------------------------
MEDIAINFO
-----------------------------------------------------------
Format                                   : AVI
Format/Info                              : Audio Video Interleave
Format profile                           : OpenDML
File size                                : 1.18 GiB
Duration                                 : 1h 42mn
Overall bit rate                         : 1 646 Kbps
Writing application                      : DigiArty AV Encoder Core

Video
ID                                       : 0
Format                                   : MPEG-4 Visual
Format profile                           : Simple@L1
Format settings, BVOP                    : No
Format settings, QPel                    : No
Format settings, GMC                     : No warppoints
Format settings, Matrix                  : Default (H.263)
Codec ID                                 : DX50
Codec ID/Hint                            : DivX 5
Duration                                 : 1h 42mn
Bit rate                                 : 1 501 Kbps
Width                                    : 720 pixels
Height                                   : 540 pixels
Display aspect ratio                     : 4:3
Frame rate                               : 29.970 fps
Color space                              : YUV
Chroma subsampling                       : 4:2:0
Bit depth                                : 8 bits
Scan type                                : Progressive
Compression mode                         : Lossy
Bits/(Pixel*Frame)                       : 0.129
Stream size                              : 1.08 GiB (91%)
Writing library                          : DigiArty AV Encoder Core

Audio
ID                                       : 1
Format                                   : MPEG Audio
Format version                           : Version 1
Format profile                           : Layer 3
Codec ID                                 : 55
Codec ID/Hint                            : MP3
Duration                                 : 1h 42mn
Bit rate mode                            : Constant
Bit rate                                 : 128 Kbps
Channel(s)                               : 2 channels
Sampling rate                            : 48.0 KHz
Compression mode                         : Lossy
Stream size                              : 94.1 MiB (8%)
Alignment                                : Aligned on interleaves
Interleave, duration                     : 24 ms (0.72 video frame)
Interleave, preload duration             : 24 ms

Comments

thanks cowabungaFC this is very rare cool movie

(Y'all got curb service)!!!
seems better then VHS could be LaserDisc or dvd V/7 A/8 real good for a old rare movie thanks to uploader will seed this out for some time i dont see trackers but theres more then 1 seeder like it shows here
Thanx cowabungaFC been looking for this movie for a long time very good quality for that rare of a movie good work
SitemapDragon Ball – Bảy Viên Ngọc Rồng chap 411 | Marvel's Agent Carter | Qatar Riyal